SUPPORT FILMTRACKS! CLICK HERE FIRST:
Amazon.com
Amazon.co.uk
iTunes (U.S.)
Amazon.ca
Amazon.fr
eBay (U.S.)
Amazon.de
Amazon.es
Half.com
Glisten Effect
Editorial Reviews
Scoreboard Forum
Viewer Ratings
Composers
Awards
   NEWEST MAJOR REVIEWS:
     1. Transformers: Last Knight
    2. Cars 3
   3. The Mummy
  4. Wonder Woman
 5. POTC: Dead Men Tell No Tales
6. Alien: Covenant


   CURRENT BEST-SELLING SCORES:
       1. Rogue One: A Star Wars Story
      2. Fantastic Beasts/Find Them
     3. Willow
    4. The Ghost and the Darkness
   5. An American Tail
  6. The Wind and the Lion
 7. Doctor Strange
8. 10 Cloverfield Lane
   CURRENT MOST POPULAR REVIEWS:
         1. Star Wars: Force Awakens
        2. E.T. The Extra-Terrestrial
       3. Titanic
      4. Avatar
     5. Nineteen Eighty-Four
    6. Gladiator
   7. Star Wars: A New Hope
  8. Animal Farm
 9. LOTR: Fellowship of the Ring
10. Harry Potter: Sorcerer's Stone
Home Page
Menu Options ▼
Comments about the soundtrack for King Arthur (Hans Zimmer)
Alternate tracklist

Media Ventures Fan
<Send E-Mail>
(175.80-202-186.nextgentel.com)
Alternate tracklist   Thursday, October 28, 2004 (1:23 a.m.) 

i made a alternate tracklist for King Arthur:

as a listening experience its the same as the original, but i have only divided the tracks into smaller peaces, so its easier to remember the best parts, and to skip to those parts (i've divided the tracks where i think it fits best, and on track 2-5, its clear where the music turns to something new. on the 2 last tracks its not so easy to find these parts, they are better "suites", but i divided them anyway......

i just used EAC to rip the whole cd (as one big track), then i used CD Wave Editor to create the new cuesheet, and burned it, again using EAC, from info from the cuesheet!

this is the cuesheet i've created:

FILE "King Arthur.wav" WAVE
TRACK 01 AUDIO

TITLE "Moya Brennan 'Tell Me Now (What You See)'"

INDEX 01 00:00:00
TRACK 02 AUDIO

TITLE "'Woad To Ruin'"

INDEX 01 04:34:18
TRACK 03 AUDIO

TITLE "'Woad To Ruin' #2"

INDEX 01 07:01:50
TRACK 04 AUDIO

TITLE "'Woad To Ruin' #3"

INDEX 01 09:34:20
TRACK 05 AUDIO

TITLE "'Woad To Ruin' #4"

INDEX 01 13:55:34
TRACK 06 AUDIO

TITLE "'Do You Think I'm Saxon?'"

INDEX 01 16:06:06
TRACK 07 AUDIO

TITLE "'Do You Think I'm Saxon?' #2"

INDEX 01 17:53:36
TRACK 08 AUDIO

TITLE "'Do You Think I'm Saxon?' #3"

INDEX 01 20:18:25
TRACK 09 AUDIO

TITLE "'Do You Think I'm Saxon?' #4"

INDEX 01 21:27:50
TRACK 10 AUDIO

TITLE "'Hold The Ice'"

INDEX 01 24:47:71
TRACK 11 AUDIO

TITLE "'Hold The Ice' #2"

INDEX 01 25:29:59
TRACK 12 AUDIO

TITLE "'Hold The Ice' #3"

INDEX 01 28:39:22
TRACK 13 AUDIO

TITLE "'Another Brick In Hadrian's Wall"

INDEX 01 30:29:67
TRACK 14 AUDIO

TITLE "'Another Brick In Hadrian's Wall #2"

INDEX 01 32:22:50
TRACK 15 AUDIO

TITLE "'Another Brick In Hadrian's Wall #3"

INDEX 01 33:59:07
TRACK 16 AUDIO

TITLE "'Budget Meeting'"

INDEX 01 37:41:45
TRACK 17 AUDIO

TITLE "'Budget Meeting' #2"

INDEX 01 44:23:56
TRACK 18 AUDIO

TITLE "'Budget Meeting' #3"

INDEX 01 46:32:10
TRACK 19 AUDIO

TITLE "'All Of Them!'"

INDEX 01 47:24:31
TRACK 20 AUDIO

TITLE "'All Of Them!' #2"

INDEX 01 49:51:63
TRACK 21 AUDIO

TITLE "'All Of Them!' #3"

INDEX 01 51:55:22


Post Full Response         Edit Post         Threaded display



Copyright © 1998-2017, Filmtracks Publications. All rights reserved.
The reviews and other textual content contained on the filmtracks.com site may not be published, broadcast,
rewritten or redistributed without the prior written authority of Christian Clemmensen at Filmtracks Publications. Scoreboard created 7/24/98 and last updated 4/25/15.